Skip to main content

Cracker Live at The Middle East (downstairs) on 2011-01-16

by Cracker



Kerosene Hat show

01. Low
02. Movie Star
03. Get Off This
04. Kerosene Hat
05. Take Me Down To The Infirmary
06. Nostalgia
07. Sweet Potato
08. Sick Of Goodbyes
09. I Want Everything
10. Lonesome Johnny Blues
11. Let's Go For A Ride
12. Loser
13. Eurotrash Girl
14. I Ride My Bike
15. Interstellar Overdrive
16. encore break
17. Sad Lover's Waltz


Collection Cracker
Band/Artist Cracker
Venue The Middle East (downstairs)
Location Cambridge, MA

Source Microtech Gefell M210's(DIN) and SBD>Audio Magic Hyper-Conductors>Edirol R-4(Oade T mod) @ 24/96
Lineage R-4>USB>pc>Sound Forge 7(mix {60%sbd} track, resample and dither to 16/44.1)> Flac Frontend 1.7.1
Taped by Jason Adler
Transferred by Jason Adler

Notes

Cracker performed their 1993 Kerosene Hat album in its entirety for the 4th time ever, and CVB played their 1989 Key Lime Pie for the second time ever.

CVB set: http://www.archive.org/details/CVB2011-01-16

Cracker
The Middle East (downstairs)
Cambridge, MA
2011-01-16

Source: Microtech Gefell M210's(DIN) and SBD>Audio Magic Hyper-Conductors>Edirol R-4(Oade T mod) @ 24/96

Mic Placement: 20' from stage, hung from ceiling

Transfer: R-4>USB>pc>Sound Forge 7(mix {60%sbd} track, resample and dither to 16/44.1)> Flac Frontend 1.7.1

Taped and Transferred by Jason Adler Jason at Galactic-Trading dotcom

SHNTOOL:
length expanded size cdr WAVE problems fmt ratio filename
5:00.41 53016004 B -b- -- ---xx flac 0.5603 Cracker2011-01-16_MG210_MATRIX_16-44T01.flac
3:30.45 37150352 B -b- -- ---xx flac 0.6036 Cracker2011-01-16_MG210_MATRIX_16-44T02.flac
4:00.25 42395044 B -b- -- ---xx flac 0.5801 Cracker2011-01-16_MG210_MATRIX_16-44T03.flac
6:49.55 72277272 B -b- -- ---xx flac 0.4388 Cracker2011-01-16_MG210_MATRIX_16-44T04.flac
4:35.71 48677740 B -b- -- ---xx flac 0.4856 Cracker2011-01-16_MG210_MATRIX_16-44T05.flac
4:35.58 48646220 B -b- -- ---xx flac 0.5519 Cracker2011-01-16_MG210_MATRIX_16-44T06.flac
3:44.48 39626540 B --- -- ---xx flac 0.5699 Cracker2011-01-16_MG210_MATRIX_16-44T07.flac
3:24.01 35987456 B -b- -- ---xx flac 0.5355 Cracker2011-01-16_MG210_MATRIX_16-44T08.flac
6:51.72 72668748 B -b- -- ---xx flac 0.4824 Cracker2011-01-16_MG210_MATRIX_16-44T09.flac
3:00.01 31754576 B -b- -- ---xx flac 0.5276 Cracker2011-01-16_MG210_MATRIX_16-44T10.flac
3:02.60 32245000 B -b- -- ---xx flac 0.5863 Cracker2011-01-16_MG210_MATRIX_16-44T11.flac
5:41.51 60271452 B -b- -- ---xx flac 0.4913 Cracker2011-01-16_MG210_MATRIX_16-44T12.flac
9:11.50 97314836 B -b- -- ---xx flac 0.5152 Cracker2011-01-16_MG210_MATRIX_16-44T13.flac
7:15.07 76751548 B -b- -- ---xx flac 0.5216 Cracker2011-01-16_MG210_MATRIX_16-44T14.flac
10:37.45 112472688 B -b- -- ---xx flac 0.5386 Cracker2011-01-16_MG210_MATRIX_16-44T15.flac
2:10.57 23067084 B -b- -- ---xx flac 0.4361 Cracker2011-01-16_MG210_MATRIX_16-44T16.flac
4:39.41 49313012 B -b- -- ---xx flac 0.4881 Cracker2011-01-16_MG210_MATRIX_16-44T17.flac
88:12.54 933635572 B 0.5205 (17 files)

Reviews

Reviewer: kgreener - - April 1, 2011
Subject: awesome
What a great band and a great recording. Well done!
Reviewer: gigglejuice - - January 29, 2011
Subject: sounds great
thanks, amazing show...
DOWNLOAD OPTIONS
In Collection
Cracker
In Collection
Live Music Archive
Uploaded by
morst
on 1/28/2011
Views
1,431
Favorites
2
Reviews
2
PEOPLE ALSO FOUND
Cracker
by Cracker
161
0
0
Source: Schoeps MK4Vs > Lunatec V3 > Sound Devices 744t
Cracker
by Cracker
400
0
1
( 1 reviews )
Source: Neumann KM140's > Shure FP24 > Sony PCM-M10 > WAV @24/48
Cracker
by Cracker
346
0
0
Source: SBD > Sony PCM-M10 > WAV @24/48
Cracker
by Cracker
151
0
0
Source: Sony ECM Mic -> Sony HI-MD -> Sonic Stage -> wav
Cracker
by Cracker
172
0
0
Source: FOB DFC DPA(B&K)4011s->V2->Luminous Synchestra Signature XLRs->AD2K@ 24/48->722
Cracker
by Cracker
83
0
0
Source: audience DAT
Cracker
by Cracker
190
0
0
Source: SBD + Audience 4-channel post-production matrix mix
Cracker
by Cracker
1,238
0
1
( 1 reviews )
Source: Multichannel SBD+AUD
Cracker
by Cracker
210
0
0
Source: internal Mic > Panasonic RX-SR29 Tape Deck > (2) Maxell XLII 90
Cracker
319
0
0
Source: Neumann KM140's > Sonosax SX-M2 > Sony PCM-M10 > WAVs @48kHz/24bit + Soundcraft 800B SBD > Edirol R44 > WAVs @48kHz/24bit